Картинка Megaline Бесплатно
Форум
Тема
Ответов
Последний
Картинки Фото красивых девушек-2 1750 metallica1979
Картинки 1тб Облако майл ру продажа 2 _Olego33_
Картинки фото вашего города 62 FoZZy
Обо всем Я люблю Казахстан 81 FoZZy
Курилка От нас что-то скрывают. 187 Rembo63
Курилка ВСЕМ ПРИВЕЕЕТТТ. 2 FoZZy
Курилка Эййй люди есть кто? 25 FoZZy
Картинки Сколько зарабатывают сайты? 11 Rembo63



06

июля

2017

Скачать Снежная королева (2012) BDRip 1080p торрент

online_kz Категория: Мультфильмы
Снежная королева (2012) BDRip 1080p


Информация о фильме
Название: Снежная королева
Год выхода: 2012
Жанр: Мультфильм, фэнтези, приключения, семейный
Режиссер: Максим Свешников, Владлен Барбэ (частично)
В ролях: Анна Шурочкина (Нюша), Иван Охлобыстин, Галина Тюнина, Дмитрий Нагиев, Елизавета Арзамасова, Людмила Артемьева, Юрий Стоянов, Анна Ардова, Рамиля Искандер, Ольга Шорохова, Михаил Тихонов, Ольга Зубкова, Эрин Фицджералд.

О фильме:
Снежная королева хочет сотворить из холода и льда идеальный новый мир, в котором не будет место искренним чувствам и эмоциям. Для достижения своей цели королева начинает избавляться от всех людей, представляющих творческие профессии. Маленькая Герда отправляется в полный опасностей холодный мир, чтобы спасти брата Кая из заточения. Отважной Герде предстоит встретиться с опасными врагами, но ради спасения брата целеустремленная девочка готова преодолеть все преграды на своём пути…

Страна: Россия
Студия: Wizart Animation, InlayFilm
Продолжительность: 01:16:00
Перевод: Русский, английский (лицензия)

Файл
Формат: MKV
Качество: BDRip 1080p (
Видео: MPEG4 Video (H264) 1920x804 (21:9), 9971kbps, 23.976fps
Звук 1: RUS AAC, 6ch, 637kbps
Звук 2: ENG AAC, 6ch, 637kbps

[spoiler=Доп. инфо]Отличается от Российского BD издания (и остальных раздач) более полной картинкой, восстановлены пропущенные кадры. Так как англоязычный исходник был 'уведён в синеву', произведена базовая цветокоррекция.[/spoiler]

[spoiler=Скриншоты]

[spoiler=Mediainfo]
General
Format : Matroska
Format version : Version 4 / Version 2
File size : 5.97 GiB
Duration : 1h 16mn
Overall bit rate : 11.2 Mbps
Encoded date : UTC 2017-07-04 18:38:50

Video
ID : 1
Format : AVC
Format/Info : Advanced Video Codec
Format profile : Main@L4.1
Format settings, CABAC : Yes
Format settings, ReFrames : 4 frames
Format settings, GOP : M=4, N=23
Codec ID : V_MPEG4/ISO/AVC
Duration : 1h 16mn
Bit rate : 9 971 Kbps
Width : 1 920 pixels
Height : 804 pixels
Display aspect ratio : 2.40:1
Frame rate mode : Constant
Frame rate : 23.976 (24000/1001) fps
Standard : NTSC
Color space : YUV
Chroma subsampling : 4:2:0
Bit depth : 8 bits
Scan type : Progressive
Bits/(Pixel*Frame) : 0.269
Stream size : 5.29 GiB (89%)
Title : Снежная королева
Language : Russian
Default : Yes
Forced : No
Color range : Limited
Color primaries : BT.709
Transfer characteristics : BT.709
Matrix coefficients : BT.709

Audio #1
ID : 2
Format : AAC
Format/Info : Advanced Audio Codec
Format profile : LC
Codec ID : A_AAC
Duration : 1h 16mn
Bit rate : 637 Kbps
Channel(s) : 6 channels
Channel positions : Front: L C R, Side: L R, LFE
Sampling rate : 48.0 KHz
Frame rate : 46.875 fps (1024 spf)
Compression mode : Lossy
Stream size : 346 MiB (6%)
Title : Снежная королева
Language : Russian
Default : Yes
Forced : No

Audio #2
ID : 3
Format : AAC
Format/Info : Advanced Audio Codec
Format profile : LC
Codec ID : A_AAC
Duration : 1h 16mn
Bit rate : 637 Kbps
Channel(s) : 6 channels
Channel positions : Front: L C R, Side: L R, LFE
Sampling rate : 48.0 KHz
Frame rate : 46.875 fps (1024 spf)
Compression mode : Lossy
Stream size : 346 MiB (6%)
Title : The Snow Queen
Language : English
Default : No
Forced : No
[/spoiler]

Размер файла: 5.97 GB
Сиды: 10
Пиры: 6

Загрузил: online_kz (6 июля 2017 02:12) |
Управление: [обновить]
Взяли: 0 | Размер: 0 b | Последняя активность: не наблюдалась
Раздают: 0 Качают: 0 Скачали: 0
 Мультитрекер 
Раздают: 0 Качают: 0 Скачали: 0
Список файлов
Torrent-magnet link: snezhnaya-koroleva.torrent



Магнет ссылка
Поиск торрент раздач, пожалуйста подождите!

Снежная королева (2012) BDRip 1080p

Комментарии
Информация
Посетители, находящиеся в группе Гость, не могут оставлять комментарии к данной публикации.