Картинка Megaline Бесплатно
Форум
Тема
Ответов
Последний
Картинки Прикольные картинки 695 metallica1979
Картинки Фото красивых девушек-2 2794 metallica1979
Картинки Демотиваторы /+18/ только старше 18 лет. 260 metallica1979
Обо всем Покупка компьютерюневерс 1 Rembo63
Игровая зона Гарнитура asus rog centurion 7.1 1 Rembo63
Игровая зона Call of Duty Modern Warfare 2 Rembo63
Музыка Важен каждый голос 5 BMW-M3
Курилка типо бизнес 19 Rembo63



08

августа

2018

Скачать Риддик / Riddick (2013) BDRip-AVC | Theatrical Cut | RUS Transfer | Open Matte | Лицензия торрент

online_kz Категория: Фильмы
Риддик / Riddick (2013) BDRip-AVC | Theatrical Cut | RUS Transfer | Open Matte | Лицензия


Название: Риддик
Оригинальное название: Riddick
Год выхода: 2013
Жанр: фантастика, боевик, триллер
Режиссер: Дэвид Туи / David Twohy

В ролях: Вин Дизель, Хорди Молья, Мэттью Нэйбл, Кэти Сакхофф, Дэйв Батиста, Букем Вудбайн, Рауль Трухильо, Конрад Пла, Дэнни Бланко, Карл Урбан, Ноа Дэнби, Нил Напье, Нолан Фанк, Андреас Апергис, Кери Хилсон, Шарли Мари Дюпон, Ян Герсте, Антуанетта Никпрелаж, Александра Соколовская

О фильме:
Преданный своими и брошенный умирать на пустынной планете, Риддик сражается с хищниками за жизнь и становится сильнее и опаснее себя прежнего. Открывшие на него охоту галактические наемники оказываются пешками в грандиозном плане отмщения. С врагами, возникающими на его пути тогда, когда это нужно самому Риддику, он начинает поход во имя мести.

фантастика, боевик, триллер
HD_VIDEO : 1
ITUNEXTC : mpaa|R|400|
Language : und
MEDIA_TYPE : 9
ORIGINAL_TITLE : Riddick
PRODUCER : Ted Field, Vin Diesel, Samantha Vincent
PUBLISHER : One Race Productions, Riddick Canada Productions, Radar Pictures
RATING : 6.6

Video
ID : 1
Format : AVC
Format/Info : Advanced Video Codec
Format profile : High@L4.1
Format settings : CABAC / 12 Ref Frames
Format settings, CABAC : Yes
Format settings, ReFrames : 12 frames
Codec ID : V_MPEG4/ISO/AVC
Duration : 1 h 54 min
Bit rate : 2 998 kb/s
Width : 1 024 pixels
Height : 576 pixels
Display aspect ratio : 16:9
Frame rate mode : Constant
Frame rate : 25.000 FPS
Color space : YUV
Chroma subsampling : 4:2:0
Bit depth : 8 bits
Scan type : Progressive
Bits/(Pixel*Frame) : 0.203
Stream size : 2.33 GiB (80%)
Title : RIP_BY_-=DoMiNo=-
Writing library : x264 core 155 r2901M 7d0ff22
Encoding settings : cabac=1 / ref=12 / deblock=1:-1:-1 / analyse=0x3:0x133 / me=umh / subme=11 / psy=1 / psy_rd=1.00:0.00 / mixed_ref=1 / me_range=32 / chroma_me=1 / trellis=2 / 8x8dct=1 / cqm=0 / deadzone=21,11 / fast_pskip=0 / chroma_qp_offset=-2 / threads=6 / lookahead_threads=1 / sliced_threads=0 / nr=0 / decimate=1 / interlaced=0 / bluray_compat=0 / constrained_intra=0 / bframes=10 / b_pyramid=2 / b_adapt=2 / b_bias=0 / direct=3 / weightb=1 / open_gop=0 / weightp=2 / keyint=250 / keyint_min=25 / scenecut=40 / intra_refresh=0 / rc=2pass / mbtree=0 / bitrate=2998 / ratetol=1.0 / qcomp=0.60 / qpmin=0 / qpmax=69 / qpstep=4 / cplxblur=20.0 / qblur=0.5 / ip_ratio=1.40 / pb_ratio=1.30 / aq=3:0.85
Language : English
Default : Yes
Forced : No
Color range : Limited

Audio
ID : 2
Format : AC-3
Format/Info : Audio Coding 3
Codec ID : A_AC3
Duration : 1 h 54 min
Bit rate mode : Constant
Bit rate : 640 kb/s
Channel(s) : 6 channels
Channel positions : Front: L C R, Side: L R, LFE
Sampling rate : 48.0 kHz
Frame rate : 31.250 FPS (1536 SPF)
Bit depth : 16 bits
Compression mode : Lossy
Stream size : 522 MiB (18%)
Title : DUB
Language : Russian
Service kind : Complete Main
Default : Yes
Forced : No

Menu
00:00:00.000 : :Chapter 01
00:07:41.120 : :Chapter 02
00:11:46.760 : :Chapter 03
00:18:05.400 : :Chapter 04
00:25:35.960 : :Chapter 05
00:30:51.800 : :Chapter 06
00:37:51.280 : :Chapter 07
00:48:23.000 : :Chapter 08
00:53:38.120 : :Chapter 09
01:00:48.800 : :Chapter 10
01:08:49.319 : :Chapter 11
01:17:41.160 : :Chapter 12
01:24:02.400 : :Chapter 13
01:29:50.040 : :Chapter 14
01:35:55.600 : :Chapter 15
01:43:27.720 : :Chapter 16
01:50:04.120 : :Chapter 17
01:54:02.840 : :Chapter 18[/spoiler]

[spoiler=Скриншоты]Риддик / Riddick (2013) BDRip-AVC | Theatrical Cut | RUS Transfer | Open Matte | ЛицензияРиддик / Riddick (2013) BDRip-AVC | Theatrical Cut | RUS Transfer | Open Matte | ЛицензияРиддик / Riddick (2013) BDRip-AVC | Theatrical Cut | RUS Transfer | Open Matte | ЛицензияРиддик / Riddick (2013) BDRip-AVC | Theatrical Cut | RUS Transfer | Open Matte | ЛицензияРиддик / Riddick (2013) BDRip-AVC | Theatrical Cut | RUS Transfer | Open Matte | ЛицензияРиддик / Riddick (2013) BDRip-AVC | Theatrical Cut | RUS Transfer | Open Matte | ЛицензияРиддик / Riddick (2013) BDRip-AVC | Theatrical Cut | RUS Transfer | Open Matte | ЛицензияРиддик / Riddick (2013) BDRip-AVC | Theatrical Cut | RUS Transfer | Open Matte | ЛицензияРиддик / Riddick (2013) BDRip-AVC | Theatrical Cut | RUS Transfer | Open Matte | ЛицензияРиддик / Riddick (2013) BDRip-AVC | Theatrical Cut | RUS Transfer | Open Matte | ЛицензияРиддик / Riddick (2013) BDRip-AVC | Theatrical Cut | RUS Transfer | Open Matte | ЛицензияРиддик / Riddick (2013) BDRip-AVC | Theatrical Cut | RUS Transfer | Open Matte | ЛицензияРиддик / Riddick (2013) BDRip-AVC | Theatrical Cut | RUS Transfer | Open Matte | ЛицензияРиддик / Riddick (2013) BDRip-AVC | Theatrical Cut | RUS Transfer | Open Matte | Лицензия[/spoiler]

Размер файла: 2.90 GB
Сиды: 126
Пиры: 31

Загрузил: online_kz (10 августа 2018 22:01) |
Управление: [обновить]
Взяли: 2 | Размер: 0 b | Последняя активность: не наблюдалась
Раздают: 0 Качают: 0 Скачали: 0
 Мультитрекер 
Раздают: 0 Качают: 0 Скачали: 0
Список файлов
Torrent-magnet link: riddik.torrent



Магнет ссылка
Поиск торрент раздач, пожалуйста подождите!

Риддик / Riddick (2013) BDRip-AVC | Theatrical Cut | RUS Transfer | Open Matte | Лицензия

Комментарии
Информация
Посетители, находящиеся в группе Гость, не могут оставлять комментарии к данной публикации.