Картинка Megaline Бесплатно
Форум
Тема
Ответов
Последний
Картинки Фото красивых девушек-2 2832 metallica1979
Картинки Прикольные картинки 699 metallica1979
Картинки Демотиваторы /+18/ только старше 18 лет. 260 metallica1979
Обо всем Покупка компьютерюневерс 1 Rembo63
Игровая зона Гарнитура asus rog centurion 7.1 1 Rembo63
Игровая зона Call of Duty Modern Warfare 2 Rembo63
Музыка Важен каждый голос 5 BMW-M3
Курилка типо бизнес 19 Rembo63



21

ноября

2017

Скачать ДругаяЖизнь / OtherLife (2017) WEBRip-AVC | L торрент

online_kz Категория: Фильмы
ДругаяЖизнь / OtherLife (2017) WEBRip-AVC | L


Информация о фильме
Название: ДругаяЖизнь
Оригинальное название: OtherLife
Год выхода: 2017
Жанр: фантастика, триллер, криминал, детектив
Режиссер: Бен С. Лукас
В ролях: Джессика Де Гау, Шалом Брюн-Фрэнклин, Томас Кокерел, Т.Дж. Пауэр, Лайам Грэхэм, Кларенс Джон Райан, Сара Хопкинс, Хоа Сюаньдэ

О фильме:
Оказаться в любом месте на планете по одному лишь желанию, теперь оказывается совершенно просто. Это стало возможным благодаря изобретению главной героиней фильма особого препарата, который позволяет перенести сознание человека куда он пожелает. Но у виртуальной реальности оказались и недостатки. Пренебрегая правилами использования этой технологии, любимый молодой человек героини погибает. Девушка вынуждена стать участником еще одного эксперимента, чтобы понести заслуженное наказание. Ее помещают в виртуальное заключение...

фантастика, триллер, криминал, детектив
HD_VIDEO : 1
IMDB_RATING : 6.30
Language : und
MEDIA_TYPE : 9
ORIGINAL_TITLE : OtherLife
RATING : 6.292
WRITER : Kelley Eskridge, Бен С. Лукас, Грегори Уайден

Video
ID : 1
Format : AVC
Format/Info : Advanced Video Codec
Format profile : High@L4.1
Format settings : CABAC / 11 Ref Frames
Format settings, CABAC : Yes
Format settings, ReFrames : 11 frames
Codec ID : V_MPEG4/ISO/AVC
Duration : 1 h 35 min
Bit rate : 1 146 kb/s
Width : 1 008 pixels
Height : 420 pixels
Display aspect ratio : 2.40:1
Frame rate mode : Constant
Frame rate : 24.000 FPS
Color space : YUV
Chroma subsampling : 4:2:0
Bit depth : 8 bits
Scan type : Progressive
Bits/(Pixel*Frame) : 0.113
Stream size : 786 MiB (65%)
Title : RIP_BY_-=DoMiNo=-
Writing library : x264 core 152 r2851M ba24899
Encoding settings : cabac=1 / ref=11 / deblock=1:-3:-3 / analyse=0x3:0x133 / me=umh / subme=10 / psy=1 / psy_rd=1.00:0.03 / mixed_ref=1 / me_range=32 / chroma_me=1 / trellis=2 / 8x8dct=1 / cqm=0 / deadzone=21,11 / fast_pskip=1 / chroma_qp_offset=-3 / threads=6 / lookahead_threads=1 / sliced_threads=0 / nr=0 / decimate=1 / interlaced=0 / bluray_compat=0 / constrained_intra=0 / bframes=12 / b_pyramid=2 / b_adapt=2 / b_bias=0 / direct=3 / weightb=1 / open_gop=0 / weightp=2 / keyint=240 / keyint_min=24 / scenecut=40 / intra_refresh=0 / rc_lookahead=60 / rc=crf / mbtree=1 / crf=17.5 / qcomp=0.60 / qpmin=0 / qpmax=69 / qpstep=4 / ip_ratio=1.40 / aq=1:1.00
Default : Yes
Forced : No

Audio #1
ID : 2
Format : AC-3
Format/Info : Audio Coding 3
Codec ID : A_AC3
Duration : 1 h 35 min
Bit rate mode : Constant
Bit rate : 192 kb/s
Channel(s) : 2 channels
Channel positions : Front: L R
Sampling rate : 48.0 kHz
Frame rate : 31.250 FPS (1536 SPF)
Bit depth : 16 bits
Compression mode : Lossy
Stream size : 132 MiB (11%)
Language : Russian
Service kind : Complete Main
Default : Yes
Forced : No

Audio #2
ID : 3
Format : AC-3
Format/Info : Audio Coding 3
Codec ID : A_AC3
Duration : 1 h 35 min
Bit rate mode : Constant
Bit rate : 384 kb/s
Channel(s) : 6 channels
Channel positions : Front: L C R, Side: L R, LFE
Sampling rate : 48.0 kHz
Frame rate : 31.250 FPS (1536 SPF)
Bit depth : 16 bits
Compression mode : Lossy
Stream size : 263 MiB (22%)
Language : English
Service kind : Complete Main
Default : No
Forced : No

Text
ID : 4
Format : UTF-8
Codec ID : S_TEXT/UTF8
Codec ID/Info : UTF-8 Plain Text
Duration : 1 h 30 min
Language : English
Default : Yes
Forced : No[/spoiler]

[spoiler=Скриншоты]ДругаяЖизнь / OtherLife (2017) WEBRip-AVC | LДругаяЖизнь / OtherLife (2017) WEBRip-AVC | LДругаяЖизнь / OtherLife (2017) WEBRip-AVC | LДругаяЖизнь / OtherLife (2017) WEBRip-AVC | LДругаяЖизнь / OtherLife (2017) WEBRip-AVC | LДругаяЖизнь / OtherLife (2017) WEBRip-AVC | LДругаяЖизнь / OtherLife (2017) WEBRip-AVC | LДругаяЖизнь / OtherLife (2017) WEBRip-AVC | L[/spoiler]

Размер файла: 1.18 GB
Сиды: 31
Пиры: 36

Загрузил: online_kz (21 ноября 2017 22:06) |
Управление: [обновить]
Взяли: 27 | Размер: 0 b | Последняя активность: не наблюдалась
Раздают: 0 Качают: 0 Скачали: 0
 Мультитрекер 
Раздают: 0 Качают: 0 Скачали: 0
Список файлов
Torrent-magnet link: drugayazhizn.torrent



Магнет ссылка
Поиск торрент раздач, пожалуйста подождите!

ДругаяЖизнь / OtherLife (2017) WEBRip-AVC | L

Комментарии
Информация
Посетители, находящиеся в группе Гость, не могут оставлять комментарии к данной публикации.