Картинка Megaline Бесплатно
Форум
Тема
Ответов
Последний
Картинки Фото красивых девушек-2 2832 metallica1979
Картинки Прикольные картинки 699 metallica1979
Картинки Демотиваторы /+18/ только старше 18 лет. 260 metallica1979
Обо всем Покупка компьютерюневерс 1 Rembo63
Игровая зона Гарнитура asus rog centurion 7.1 1 Rembo63
Игровая зона Call of Duty Modern Warfare 2 Rembo63
Музыка Важен каждый голос 5 BMW-M3
Курилка типо бизнес 19 Rembo63



25

сентября

2016

Скачать Арка / ARQ (2016) WEBRip торрент

online_kz Категория: Фильмы
Арка / ARQ (2016) WEBRip


Информация о фильме
Название: Арка
Оригинальное название: ARQ
Год выпуска: 2016
Жанр: Фантастика, триллер
Режиссер: Тони Эллиотт
В ролях: Робби Амелл, Рэйчел Тейлор, Грэй Пауэлл, Джейкоб Нийем, Шон Бенсон, Адам Батчер, Джейми Спильчук

О фильме:
Будущее Земли зависит от новой технологии, но на пути к выживании планеты — неожиданный поворот. Запертые в лаборатории и застрявшие во временной петле, дезориентированные герои пытаются скрыться от захватчиков в масках, одновременно сохранив новый источник энергии, который может спасти человечество.

Страна: США
Студия: Lost City, MXN Entertainment , XYZ Films
Продолжительность: 01:27:43
Перевод: Любительский двухголосый (RecentFilms)

Файл
Формат: AVI
Качество: WEBRip
Видео: XviD, 720x304 (2.35:1), 23.976 fps, 2085 Kbps (0.282 bit/pixel)
Звук: 48.0 kHz, AC3 Dolby Digital, 2.0 ch, 256 kbps
Субтитры: нет

Рип без рекламы.

[spoiler=МедиаИнфо]General
Complete name : Karina.Krasnaja.2016.WEB-DLRip.by.GeneralFilmSerija.01.avi
Format : AVI
Format/Info : Audio Video Interleave
File size : 555 MiB
Duration : 46mn 6s
Overall bit rate : 1 683 Kbps
Writing application : VirtualDubMod 1.5.10.3 | www.virtualdub-fr.org || (build 2550/release)
Writing library : VirtualDubMod build 2550/release

Video
ID : 0
Format : MPEG-4 Visual
Format profile : Advanced Simple@L5
Format settings, BVOP : 1
Format settings, QPel : No
Format settings, GMC : No warppoints
Format settings, Matrix : Custom
Codec ID : XVID
Codec ID/Hint : XviD
Duration : 46mn 6s
Bit rate : 1 481 Kbps
Width : 720 pixels
Height : 400 pixels
Display aspect ratio : 16:9
Frame rate : 25.000 fps
Color space : YUV
Chroma subsampling : 4:2:0
Bit depth : 8 bits
Scan type : Progressive
Compression mode : Lossy
Bits/(Pixel*Frame) : 0.206
Stream size : 489 MiB (88%)
Writing library : XviD 73

Audio
ID : 1
Format : AC-3
Format/Info : Audio Coding 3
Mode extension : CM (complete main)
Format settings, Endianness : Big
Codec ID : 2000
Duration : 46mn 6s
Bit rate mode : Constant
Bit rate : 192 Kbps
Channel(s) : 2 channels
Channel positions : Front: L R
Sampling rate : 48.0 KHz
Frame rate : 31.250 fps (1536 spf)
Compression mode : Lossy
Stream size : 63.3 MiB (11%)
Alignment : Split accross interleaves
Interleave, duration : 40 ms (1.00 video frame)
Interleave, preload duratio : 500 ms[spoiler=Семпл][spoiler=Семпл]http://sendfile.su/1268741[/spoiler]

[spoiler=Скриншоты]Арка / ARQ (2016) WEBRipАрка / ARQ (2016) WEBRip
Арка / ARQ (2016) WEBRipАрка / ARQ (2016) WEBRip
[/spoiler]

Размер файла: 1.44 GB
Сиды: 177
Пиры: 184

[attachment=14167]

Магнет ссылка
Поиск торрент раздач, пожалуйста подождите!

Арка / ARQ (2016) WEBRip

Комментарии
Информация
Посетители, находящиеся в группе Гость, не могут оставлять комментарии к данной публикации.